<?xml version="1.0" standalone="no"?>
<!DOCTYPE svg PUBLIC "-//W3C//DTD SVG 1.1//EN" "http://www.w3.org/Graphics/SVG/1.1/DTD/svg11.dtd" >
<svg xmlns="http://www.w3.org/2000/svg">
<metadata></metadata>
<defs>
<font id="als_rublregular" horiz-adv-x="1024" >
<font-face units-per-em="2048" ascent="1536" descent="-512" />
<missing-glyph horiz-adv-x="500" />
<glyph horiz-adv-x="2048" />
<glyph horiz-adv-x="2048" />
<glyph unicode="&#xd;" horiz-adv-x="2048" />
<glyph unicode=" " />
<glyph unicode="a" horiz-adv-x="1556" d="M164 291v166h153v127h-153v164h153v686h541q137 0 217 -13q155 -23 246.5 -134t91.5 -267q0 -185 -117 -311q-116 -125 -422 -125h-366v-127h829v-166h-829v-291h-191v291h-153zM508 752h369q180 0 258.5 66t78.5 196q0 90 -44 153.5t-119 83.5q-50 13 -179 13h-364v-512 z" />
<glyph unicode="b" horiz-adv-x="1169" d="M61 293l27 164h127l21 123h-125l26 163h127l119 689h473q125 0 200 -35t115 -111q39 -72 39 -207q0 -150 -69 -276t-183 -174q-110 -49 -270 -49h-295l-20 -123h682l-29 -164h-682l-49 -293h-158l51 293h-127zM422 743h258q136 0 209 35t119 115q49 82 49 182 q0 142 -90 180q-44 21 -154 21h-299z" />
<glyph unicode="c" horiz-adv-x="1542" d="M143 176v242h166v123h-166v241h166v654h465q256 0 346 -23q128 -34 208.5 -144t80.5 -276q0 -94 -28 -172.5t-75 -130t-101.5 -84t-114.5 -45.5q-100 -20 -302 -20h-188v-123h748v-242h-748v-176h-291v176h-166zM600 784h158q165 0 229 23q56 20 89.5 69.5t33.5 112.5 q0 76 -45.5 128.5t-116.5 64.5q-58 10 -209 10h-139v-408z" />
<glyph unicode="d" horiz-adv-x="1462" d="M61 176l56 236h190l29 135h-189l56 237h182l135 650h592q220 0 326 -93.5t106 -265.5q0 -106 -41 -210t-104 -167q-61 -61 -132 -92.5t-188 -50.5q-63 -8 -260 -8h-190l-29 -135h746l-52 -236h-743l-37 -176h-293l37 176h-197zM678 784h92q229 0 311 29q74 29 121 93 t47 145q0 49 -23 83t-65 48q-43 16 -184 16h-211z" />
<glyph unicode="e" horiz-adv-x="1452" d="M184 442v86h201v103h-201v86h201v512q0 41 -11.5 68t-45.5 38q-49 17 -144 27v72h658q195 0 321 -97q125 -98 125 -258q0 -221 -166 -342q-143 -106 -360 -106h-162v-103h633v-86h-633v-247q0 -40 12.5 -65t46.5 -38q10 -5 64 -12l86 -8v-72h-616v72l69 6q44 3 66 14 q57 23 57 103v247h-201zM600 717h102q199 0 279 119q57 84 57 192q0 140 -61 223q-74 99 -234 99h-143v-633z" />
<glyph unicode="f" horiz-adv-x="1359" d="M61 0l15 68q104 6 141 18q62 21 80 104l57 252h-198l20 82h199l24 109h-198l20 84h197l121 518q6 30 6 41q0 50 -39 65q-56 21 -135 25l14 68h637q174 0 281.5 -78.5t107.5 -210.5q0 -119 -51.5 -216.5t-140.5 -162.5q-177 -133 -431 -133h-172l-26 -109h643l-19 -82 h-643l-59 -252q-4 -28 -4 -36q0 -51 41 -68q18 -6 63 -12t80 -6l-14 -68h-617zM635 717h115q231 0 337 153q76 107 76 252q0 106 -55 164q-67 70 -197 70h-131z" />
<glyph unicode="g" horiz-adv-x="1650" d="M164 0v78q12 2 46.5 6t61 8t37.5 8q37 17 50.5 40t13.5 65v209h-209v96h209v106h-209v97h209v504q0 39 -12.5 62.5t-51.5 41.5q-58 24 -145 35v78h790q278 0 415.5 -88.5t137.5 -272.5q0 -236 -186 -350q-170 -105 -471 -105h-117v-108h719v-96h-719v-201q0 -73 66 -104 q46 -17 141 -31v-78h-776zM733 713h43q336 0 336 309q0 168 -67 243.5t-228 75.5h-84v-628z" />
<glyph unicode="h" horiz-adv-x="1611" d="M61 0l17 74q43 0 78 6q47 6 71 16q73 25 90 101l54 235h-211l20 88h211l23 96h-211l18 91h215l113 491q8 39 8 57q0 42 -43 67t-139 38l16 74h778q250 0 372 -74.5t122 -226.5q0 -257 -219 -390q-208 -127 -526 -127h-146l-22 -96h735l-21 -88h-737l-45 -203 q-8 -31 -8 -57q0 -45 38.5 -66.5t145.5 -31.5l-18 -74h-779zM795 707h65q213 0 311 122q93 115 93 299q0 112 -59 165t-191 53h-72z" />
<glyph unicode="i" horiz-adv-x="1398" d="M184 246v164h146v125h-146v163h146v736h360q243 0 373 -91q172 -120 172 -342q0 -93 -33.5 -176t-93.5 -143q-75 -75 -175.5 -111t-250.5 -36h-162v-125h643v-164h-643v-246h-190v246h-146zM520 696h129q120 0 189.5 19t115.5 67q82 82 82 213q0 153 -102 219 q-83 56 -256 56h-158v-574z" />
<glyph unicode="j" horiz-adv-x="1523" d="M143 100v269h148v100h-148v268h148v695h557q237 0 375 -95q168 -114 168 -358q0 -102 -31 -191t-90 -149q-81 -81 -178 -123q-109 -47 -252 -47h-191v-100h682v-269h-682v-100h-358v100h-148zM649 735h27q131 0 174 6q71 10 111 50q36 34 48.5 73t12.5 107 q0 59 -28 102.5t-70 63.5q-29 14 -64.5 20t-62.5 7t-97 1h-51v-430z" />
<glyph unicode="k" horiz-adv-x="1327" d="M123 481v70h207v90h-207v70h207v467q0 133 -29 170q-39 45 -123 45h-53v41h524q191 0 303 -40t187 -134q75 -93 75 -222q0 -181 -116 -289t-326 -108h-242v-90h621v-70h-621v-227q0 -132 31 -168q41 -47 121 -47h55v-39h-612v39h53q90 0 131 59q21 35 21 156v227h-207z M530 711h175q109 0 190 84q80 86 80 221q0 166 -80.5 249t-224.5 83q-54 0 -140 -21v-616z" />
<glyph unicode="l" horiz-adv-x="1386" d="M51 0l12 39q112 0 154 39q44 38 96 213l56 192h-144l19 74h147l31 107h-158l19 71h159l109 373q41 139 41 197q0 41 -33.5 63.5t-128.5 26.5l12 39h564q220 0 331 -97q111 -95 111 -231q0 -112 -72 -215t-205 -164q-135 -63 -297 -63h-264l-30 -107h690l-17 -74h-696 l-49 -176q-41 -140 -41 -184q0 -24 10.5 -39.5t48.5 -28t107 -16.5l-12 -39h-570zM631 735h200q118 0 212 49t147 142q53 95 53 198q0 109 -67 170.5t-197 61.5q-66 0 -174 -19z" />
<glyph unicode="m" horiz-adv-x="1437" d="M123 475v82h201v92h-201v82h201v451q0 118 -15 145q-16 32 -51 49q-36 19 -133 19v39h625q308 0 440 -111q135 -111 135 -274q0 -139 -86 -237.5t-240 -135.5q-115 -27 -344 -27v-92h627v-82h-627v-223q0 -122 13 -148q13 -29 51 -47q37 -18 133 -18v-39h-727v39 q91 0 130 16t54 49q15 30 15 148v223h-201zM655 731h52q130 0 199 77t69 234q0 310 -277 310h-43v-621z" />
<glyph unicode="n" horiz-adv-x="1447" d="M41 0l12 39q84 1 122.5 17t64.5 53q18 24 55 149l49 172h-201l23 90h205l35 121h-203l26 90h203l127 438q27 89 27 131q0 87 -160 95l10 39h568q235 0 337 -60q158 -91 158 -278q0 -178 -158 -318q-155 -137 -426 -137h-200l-35 -121h629l-25 -90h-631l-49 -172 q-26 -89 -26 -119q0 -34 12 -53t51.5 -31.5t114.5 -15.5l-15 -39h-700zM741 731h113q146 0 229 133q84 134 84 279q0 97 -53.5 151t-148.5 54h-50z" />
<glyph unicode="o" horiz-adv-x="1298" d="M154 281v145h135v143h-135v146h135v721h465q64 0 121.5 -12.5t109 -41t89 -70.5t59.5 -106t22 -143q0 -492 -653 -492h-23v-145h635v-145h-635v-281h-190v281h-135zM479 715h66q197 0 302 78t105 254q0 64 -22.5 113.5t-60 77t-79.5 41t-88 13.5h-223v-577z" />
<glyph unicode="p" horiz-adv-x="1515" d="M143 260v225h136v84h-136v226h136v686h661q217 0 329.5 -93t112.5 -303q0 -227 -137 -369.5t-379 -142.5h-217v-88h598v-225h-598v-260h-370v260h-136zM649 795q35 0 62.5 1.5t64 7.5t64.5 16.5t57 30t47.5 46t30.5 67t12 91.5q0 95 -60.5 137.5t-160.5 42.5 q-49 0 -117 -14v-426z" />
<glyph unicode="q" horiz-adv-x="1308" d="M123 236v161h135v135h-135v164h135v738h387q246 0 379 -91q172 -117 172 -342q0 -195 -127 -319q-75 -75 -177 -111t-253 -36h-190v-138h688v-161h-688v-236h-191v236h-135zM449 696h159q115 0 187 21.5t120 66.5q82 82 82 211q0 149 -104 217q-89 58 -256 58h-188v-574z " />
<glyph unicode="r" horiz-adv-x="1259" d="M41 233l35 156h151l35 150h-151l34 153h152l172 744h379q239 0 356 -90q117 -88 117 -256q0 -117 -51 -223.5t-144 -182.5q-90 -76 -199.5 -110.5t-262.5 -34.5h-209l-35 -150h727l-33 -156h-731l-53 -233h-193l53 233h-149zM489 692h173q117 0 193 21.5t132 68.5 q129 108 129 275q0 112 -67 162q-41 32 -97 45.5t-147 13.5h-178z" />
<glyph unicode="s" horiz-adv-x="1697" d="M123 117v291h194v92h-194v288h194v748h654q144 0 244.5 -24t179.5 -76q190 -122 190 -385q0 -105 -36.5 -203t-102.5 -164q-96 -94 -209.5 -139t-275.5 -45h-246v-92h790v-291h-790v-117h-398v117h-194zM715 788h112q106 0 170.5 13.5t106.5 50.5q72 61 72 190 q0 60 -34 107.5t-83 69.5q-33 14 -84.5 21t-85.5 8t-107 1h-67v-461z" />
<glyph unicode="t" horiz-adv-x="1632" d="M72 109l61 270h209l20 88h-208l63 272h209l162 697h516q289 0 426 -86q153 -96 153 -312q0 -256 -213 -413q-214 -158 -593 -158h-142l-20 -88h774l-59 -270h-777l-24 -109h-373l25 109h-209zM799 737h133q168 0 262 69.5t94 197.5q0 84 -59.5 123.5t-181.5 39.5h-150z " />
<glyph unicode="u" horiz-adv-x="1452" d="M102 217v205h246v164h-246v205h246v643h547q102 0 184 -25t146 -80q135 -114 135 -319q0 -206 -135 -320q-64 -55 -146 -80q-79 -24 -184 -24h-203v-164h590v-205h-590v-217h-344v217h-246zM692 791h115q77 0 117 22q31 16 55.5 55.5t24.5 106.5t-24.5 106.5t-55.5 55.5 q-30 15 -60 18q-28 4 -57 4h-115v-368z" />
<glyph unicode="v" horiz-adv-x="1296" d="M143 0v76l197 37v321h-197v78h197v123h-197v78h197v596l-197 37v75h562q193 0 301 -55q168 -88 168 -301q0 -191 -136 -309q-138 -121 -401 -121h-107v-123h615v-78h-615v-321l215 -37v-76h-602zM530 713h97q190 0 274 90q68 74 68 211q0 173 -109 258q-88 71 -260 71 h-70v-630z" />
<glyph unicode="w" horiz-adv-x="1589" d="M123 367q0 22 15 40q14 19 44 25q7 1 15 1q25 0 59 -17q149 -19 258 -21l51 144q-78 4 -121 8q-88 8 -129 10q-21 1 -35 3t-34.5 8t-31.5 20t-11 35q0 22 15 40q14 19 44 25q7 1 15 1q25 0 59 -17q147 -26 258 -33l29 78q106 288 208 510q37 86 109 86q11 0 22 -4.5 t20 -16t10.5 -29t-9.5 -46t-37 -64.5q-24 -33 -45 -68t-43 -81t-31 -65.5t-32.5 -75.5t-24.5 -58q-40 -92 -65 -180q90 -11 157 -11q182 0 314 62q89 42 149.5 109.5t84.5 133t24 128.5q0 131 -109 227q-137 121 -403 121q-298 0 -521 -140q-116 -71 -116 -147 q0 -29 17.5 -50t46.5 -30.5t50 -13t43 -4.5q20 -1 30.5 -3t23 -12t12.5 -28q0 -17 -16 -30t-54 -13q-122 0 -192 49q-72 51 -72 127q0 145 184 250q241 139 574 139q338 0 506 -172q110 -113 110 -262q0 -66 -19.5 -131.5t-57.5 -128.5t-102 -117.5t-146 -89.5 q-162 -70 -392 -70q-87 0 -161 6l-47 -135q162 -13 372 -13q53 0 109 1q86 0 127 4q46 4 67 4q64 0 64 -53q0 -17 -8 -29t-24 -18.5t-33.5 -10t-44.5 -3.5t-49 0.5t-54 1.5t-53 1q-151 0 -504 21l-45 -137q-15 -45 -15.5 -69.5t6.5 -41.5t7 -31q0 -69 -70 -69 q-26 0 -46.5 22.5t-20.5 61.5q0 29 11 78t21 75l41 115q-198 6 -248 6q-110 0 -110 62z" />
<glyph unicode="&#xa0;" />
<glyph unicode="&#xff;" horiz-adv-x="1705" />
<glyph unicode="&#x2000;" horiz-adv-x="768" />
<glyph unicode="&#x2001;" horiz-adv-x="1536" />
<glyph unicode="&#x2002;" horiz-adv-x="768" />
<glyph unicode="&#x2003;" horiz-adv-x="1536" />
<glyph unicode="&#x2004;" horiz-adv-x="512" />
<glyph unicode="&#x2005;" horiz-adv-x="384" />
<glyph unicode="&#x2006;" horiz-adv-x="256" />
<glyph unicode="&#x2007;" horiz-adv-x="256" />
<glyph unicode="&#x2008;" horiz-adv-x="192" />
<glyph unicode="&#x2009;" horiz-adv-x="307" />
<glyph unicode="&#x200a;" horiz-adv-x="85" />
<glyph unicode="&#x202f;" horiz-adv-x="307" />
<glyph unicode="&#x205f;" horiz-adv-x="384" />
<glyph unicode="&#xe000;" d="M0 0z" />
</font>
</defs>
</svg>
